#TITLE:Summer Dance;
#SUBTITLE:;
#ARTIST:이정현;
#TITLETRANSLIT:Summer Dance;
#SUBTITLETRANSLIT:;
#ARTISTTRANSLIT:Lee Jung Hyun;
#CREDIT:;
#BANNER:Summer Dance-bn.png;
#BACKGROUND:Summer Dance-bg.png;
#LYRICSPATH:;
#CDTITLE:pm4cd.png;
#MUSIC:Summer Dance.mp3;
#OFFSET:-0.060;
#SAMPLESTART:78.300;
#SAMPLELENGTH:20.000;
#SELECTABLE:YES;
#BPMS:0.000=142.000;
#STOPS:;
#BGCHANGES:;
// cache tags:
#FIRSTBEAT:12.250;
#LASTBEAT:513.750;
#SONGFILENAME:Songs/Music V.I.P ^_^/Summer Dance/Summer Dance.sm;
#HASMUSIC:1;
#HASBANNER:1;
#MUSICLENGTH:217.163;
// end cache tags

//---------------dance-single - ----------------
#NOTES:
     dance-single:
     :
     Hard:
     19:
     1.000,1.000,1.000,0.617,1.000,1287.000,465.000,134.000,0.000,147.000:
0000
0000
0000
0000
,
0000
0000
0000
0000
,
0000
0000
0000
0000
,
0000
0100
0000
0010
0000
0001
0000
0010
0000
0100
0000
1000
0000
0100
0000
0010
,
0000
0001
0000
0010
0000
0100
0000
1000
0000
0100
0000
0010
0000
0001
0000
0010
,
0000
0100
0000
1000
0000
0100
0000
0010
0000
0001
0000
0010
0000
0100
0000
1000
,
0000
0100
0000
0010
0000
0001
0000
0010
0000
0100
0000
1000
0000
0100
0000
0010
,
0000
1101
0000
0010
0000
1000
0000
0100
0000
0101
0000
0001
0000
0010
0000
0100
,
0000
0101
0000
0001
0000
0100
0000
0010
0000
0110
0000
0100
0000
0010
0000
1000
,
0000
1100
0000
0010
0000
0001
0000
0010
0000
1100
0000
0001
0000
1000
0000
0100
,
0000
0011
0000
1000
0000
0100
0000
0010
0000
1100
0000
0010
0000
0100
0000
1000
,
0000
0111
0000
0010
0000
1001
0000
0001
0000
1100
0000
0100
0000
0011
0000
0010
,
0000
1100
0000
0100
0000
0101
0000
0010
0000
1010
0000
1000
0000
1001
0000
0010
,
0000
0110
0000
0001
0000
1100
0000
0010
0000
0101
0000
1000
0000
0011
0000
0001
,
0000
1100
0000
0101
0000
0101
0000
0001
0000
1010
0000
1010
0100
1011
0100
0010
,
0001
1101
0000
0010
0000
1100
0000
0001
0000
1010
0000
1000
0000
0101
0000
0010
,
0000
0011
0000
1000
0000
1001
0000
0100
0000
0011
0000
0100
0000
0011
0000
1000
,
0000
0101
0000
0010
0000
1100
0000
0001
0000
0201
0000
0010
0000
1010
0000
1000
,
0000
0011
0000
0010
0000
1010
0000
0301
1000
0110
0000
1000
0000
0101
0000
1000
,
0000
1020
0000
0100
0000
1100
0000
0001
0000
1001
0000
0100
0000
0101
0000
1000
,
0000
1230
0000
0010
0000
0011
0000
0001
0000
1010
0000
0010
0000
1301
0000
0100
,
0000
1010
0000
1010
0000
0101
0000
1010
0000
1001
0000
1001
0000
0110
0000
0001
,
0000
1100
0000
1100
0000
0011
0000
1000
0000
0001
0010
1100
0010
0011
0010
1100
,
0010
1101
0000
0010
0000
1100
0000
1000
0000
1001
0000
0100
0000
0101
0000
0001
,
0000
0011
0000
1000
0000
0110
0000
0010
0000
0101
0000
1000
0000
0011
0000
0100
,
0000
0110
0000
1000
0000
0101
0000
0010
0000
1100
0000
0001
0000
0101
0000
0010
,
0000
1100
0000
0100
0000
0101
0000
0010
0000
0110
0000
1000
0000
1001
0000
0010
,
0000
1010
0000
0100
0000
0101
0000
0001
0000
0011
0000
1000
0000
1100
0000
0010
,
0000
0101
0000
0010
0000
1001
0000
0100
0000
0011
0000
1000
0000
0101
0000
0001
,
0000
1100
0000
1000
0000
0110
0000
0010
0000
1010
0000
1000
0100
0011
0000
0100
,
0000
1001
0000
0010
0000
1100
0000
1000
0100
1001
1000
0011
1000
0101
0100
1100
,
0010
1101
0000
0010
0000
1001
0000
0100
0000
0011
0000
0100
0000
1001
0000
0010
,
0000
1100
0000
0001
0000
0110
0000
0100
0000
0101
0000
0001
0000
1100
0000
0100
,
0000
0101
0000
0010
0000
1100
0000
0001
0000
0110
0000
1000
0000
0101
0000
0010
,
0000
0110
0000
1000
0000
2020
0000
0100
0000
3232
0000
0010
0000
2323
0000
0001
,
0000
3131
0000
1000
0000
0110
0000
0010
0000
1001
0000
0100
0000
0011
0000
1000
,
0000
0101
0000
0010
0000
1001
0000
0010
0000
1100
0000
0001
0000
0101
0000
1000
,
0000
1010
0000
0010
0000
0011
0000
1000
0000
0110
0000
0010
0000
0101
0000
0100
,
0000
1010
0000
0011
0000
0011
0000
1100
0000
1100
0000
0110
0010
0110
1000
0101
,
0100
0111
0000
0100
0000
0101
0000
0010
0000
0110
0000
1000
0000
1001
0000
0010
,
0000
0110
0000
0100
0000
0011
0000
1000
0000
0101
0000
0010
0000
1001
0000
0100
,
0000
0011
0000
0100
0000
1010
0000
0001
0000
1100
0000
2000
0000
0101
0000
0001
,
0000
0011
0000
0100
0000
0101
0000
0010
0000
0011
0000
0010
0000
3110
0000
0001
,
0000
0021
0000
1000
0000
0101
0000
0001
0000
1100
0000
0100
0000
1001
0000
0001
,
0000
1230
0000
0001
0000
0011
0000
1000
0000
1010
0000
0001
0000
1001
0000
0010
,
0000
0312
0000
1000
0000
1010
0000
0010
0000
0110
0000
1000
0000
1100
0000
0010
,
0000
1010
0000
1003
0100
0101
0000
0101
0001
0011
0100
1010
1000
1100
0010
0110
,
0100
2111
0100
0010
0001
0010
0100
0001
0010
0001
0100
0010
0100
0010
0001
0010
,
0100
0001
0010
0100
0010
0001
0010
3100
1000
0100
0010
0001
0100
0010
1000
0010
,
0100
1002
0010
1000
0100
0010
1000
0100
1000
0010
0100
1000
0010
1000
0100
1000
,
0100
0013
0100
0010
1000
0001
1000
0100
1000
0010
0100
0010
0001
1000
0100
0010
,
0100
1020
0100
0001
1000
0100
1000
0100
0001
0100
0001
1000
0100
0001
1000
0001
,
1000
0231
1000
0010
0001
1000
0010
1000
0010
1000
0001
1000
0001
0010
1000
0010
,
0001
2310
0100
0010
0001
0100
0010
0100
0001
0010
0100
0001
0010
0001
0100
0010
,
0001
3100
0001
0110
0000
0110
0000
0110
1000
0110
0100
1100
1000
0101
0100
1010
,
0010
1201
0010
0001
0010
0001
1000
0010
0001
1000
0010
1000
0001
0010
1000
0301
,
1000
0100
0010
0001
0010
0100
1000
0010
1000
0100
1000
0001
1000
0100
0001
0010
,
0001
2110
0001
0010
0100
0001
0010
0001
0100
0010
0001
0100
0010
0100
0001
0010
,
0100
3001
1000
0100
0010
1000
0010
0100
1000
0100
0010
0100
0010
0001
0010
1000
,
0100
1012
0100
1000
0100
1000
0010
0100
1000
0010
0100
0010
0100
1000
0100
0010
,
0100
0010
1000
0100
0010
0100
0010
1000
0100
1000
0010
0100
0010
1000
0100
0010
,
0103
0020
0001
0100
1000
0001
1000
0001
0100
1000
0100
1000
0001
0100
0001
1000
,
0100
1031
0000
1100
0000
1100
0000
0110
0000
0110
0000
0011
0100
1001
0100
1100
,
1000
2101
0000
0010
0000
0100
0000
0011
0000
3201
0000
0010
0000
1001
0000
0010
,
0000
1320
0000
0001
0000
1100
0000
1100
0000
0001
0000
0101
0000
0101
0000
1000
,
0000
1131
0000
0010
0000
1100
0000
0010
0000
0101
0000
1000
0000
0011
0000
0100
,
0000
0110
0000
0101
0000
0101
0000
0100
0000
1010
0001
1010
0100
0101
0001
0011
,
0010
1111
0000
1000
0000
0101
0000
0010
0000
0110
0000
0100
0000
1100
0000
0010
,
0000
0101
0000
0010
0000
0111
0000
0010
0000
1110
0000
0100
0000
0111
0000
0010
,
0000
1110
0000
0100
0000
0101
0000
0001
0000
0011
0000
0100
0000
1010
0000
1000
,
0000
1100
0000
0010
0000
1101
0000
0001
0000
1011
0000
1000
0000
1011
0000
0001
,
0000
1101
0000
0010
0000
0101
0000
0010
0000
1100
0000
0010
0000
0110
0000
1000
,
0000
0011
0000
0100
0000
1110
0000
0100
0000
1101
0000
0010
0000
0111
0000
0010
,
0000
1011
0000
0011
0000
0011
0000
1100
0000
1100
0000
1100
0000
0101
0000
0101
,
0000
0101
0000
0110
0000
0110
0000
1001
0000
1001
0000
0011
0001
1001
1000
0101
,
1000
1111
0000
2000
3000
0020
0030
0200
0300
0002
0003
0110
0000
0200
0300
1100
,
0000
1010
0000
0002
0003
0020
0030
0200
0300
2000
3000
0101
0000
0200
0300
1100
,
0000
0110
0000
0002
0003
2000
3000
0200
0300
0020
0030
1001
0000
0020
0030
1100
,
0000
0011
0000
2000
3000
0200
0300
0020
0030
0002
0003
0110
0000
0020
0030
1010
,
0000
0101
0000
0002
0003
0020
0030
0200
0300
0020
0030
1001
0000
0200
0300
1100
,
0000
0110
0000
0020
0030
0200
0300
2000
3000
0200
0300
0011
0000
0200
0300
1010
,
0000
0101
0000
0002
0003
2000
3000
0200
0300
0020
0030
1001
0100
1010
0010
0101
,
0001
0111
0000
1000
0000
1101
0000
0010
0000
1011
0000
0100
0001
1101
0010
1100
,
0010
1101
0000
0010
0000
1100
0000
0001
0000
0101
0000
0010
0000
0110
0000
1000
,
0000
1100
0000
0010
0000
0101
0000
0010
0000
1100
0000
0001
0000
1010
0000
0100
,
0000
0011
0000
1000
0000
0101
0000
0001
0000
0110
0000
1000
0000
0101
0000
0010
,
0000
1100
0000
0010
0000
0101
0000
1000
0000
0011
0000
0100
0000
1010
0000
0100
,
0000
1001
0000
0001
0000
0011
0000
0100
0000
0101
0000
1000
0000
1100
0000
0010
,
0000
0110
0000
0001
0000
0101
0000
1000
0000
1010
0000
0100
0000
0011
0000
1000
,
0000
0110
0000
0010
0000
0011
0000
1000
0000
0101
0000
0010
0000
1100
0000
0010
,
0000
0101
0000
0011
0000
0011
0000
1100
0000
1101
0000
0110
0010
0011
0010
1001
,
0001
1101
0000
0010
0000
1100
0000
0001
0000
0101
0000
0010
0000
1100
0000
0100
,
0000
0101
0000
0010
0000
1100
0000
0100
0000
0101
0000
0010
0000
0110
0000
0100
,
0000
1100
0000
0001
0000
0101
0000
0010
0000
0110
0000
1000
0000
1010
0000
0010
,
0000
0101
0000
0001
0000
0011
0000
1000
0000
0110
0000
0010
0000
0101
0000
0100
,
0000
0102
0000
1000
0000
1100
0000
0010
0000
0110
0000
0010
0000
1010
0000
0010
,
0000
1023
0000
1000
0000
0101
0000
1000
0000
1100
0000
0001
0000
1001
0000
0130
,
0010
0101
0000
1000
0000
0011
0000
0100
0000
1010
0000
0001
0000
1100
0000
0010
,
0000
0101
0000
0110
0000
0110
0000
1001
0000
1001
0000
0101
0100
1100
0100
0110
,
1000
1112
1000
0100
0010
0100
1000
0010
0100
0010
1000
0100
0010
1000
0010
0100
,
1000
0010
0100
0013
1000
0100
0010
0001
0100
0010
1000
0100
0001
0010
0100
1000
,
0100
1020
0100
1000
0001
0100
1000
0100
0001
1000
0100
1000
0100
0001
0100
0001
,
1000
0031
0100
1000
0010
0100
0001
0010
0100
1000
0010
0100
1000
0010
1000
0010
,
0001
0210
1000
0010
1000
0001
1000
0001
0010
0001
0010
1000
0010
0301
0010
0100
,
1000
0021
1000
0100
1000
0100
0001
0100
1000
0100
1000
0001
1000
0001
0100
1030
,
0100
2001
0010
0100
0001
0100
0010
0001
0100
0010
0100
0001
0010
0100
0001
0010
,
0001
3100
0010
1001
0000
1001
0000
0110
0000
0110
0000
1001
1000
1010
0010
1001
,
0001
2111
0001
0010
0100
0011
0100
0001
0010
0101
0010
0100
0001
0110
0001
0100
,
0010
3101
0010
1000
0100
1010
0001
0010
1000
0011
0100
0001
1000
0101
0001
0010
,
0100
1021
0100
1000
0001
1100
0100
1000
0100
0101
0001
1000
0100
1001
0001
0100
,
1000
1130
0001
1000
0100
0011
0001
1000
0010
1100
0001
0010
0100
1001
0010
0001
,
0010
1102
0010
1000
0100
1010
0100
0010
1000
0110
1000
0100
1000
1100
0010
0100
,
1000
2113
0001
0100
0010
0101
0010
0001
0100
0011
0001
0010
0100
0101
0001
0010
,
0100
3211
1000
0010
1000
0011
1000
0001
0010
1010
0010
0001
1000
1001
0001
0010
,
1000
0311
0000
1100
0000
1100
0000
0110
0000
0110
0000
1001
1100
0101
1001
0011
,
0110
2011
0000
0100
0000
0110
0000
0001
0000
0010
0000
0101
0000
0011
0000
0001
,
0000
3102
0000
1000
0000
0110
0000
1100
0000
0010
0000
1010
0000
1100
0000
0010
,
0000
1113
0000
0001
0000
0110
0000
0010
0000
0101
0000
1000
0000
1100
0000
0010
,
0000
0101
0000
0110
0000
0110
0000
0100
0010
1001
0000
1001
0110
1100
1010
0101
,
1100
1021
0000
2030
0000
3201
0000
0320
0000
1032
0000
0023
0000
1230
0000
2300
,
0000
3210
0000
0320
0000
0231
0000
0320
0000
2030
0000
3102
0000
1023
0000
0230
,
0000
2301
0000
3020
0000
1230
0000
0302
0000
2013
0000
3020
0000
1230
0000
0302
,
0000
2013
0000
3020
0000
0231
0000
0302
0000
0023
0000
2130
0000
3210
0000
0302
,
0000
0123
0000
0032
0000
2013
0000
3020
0000
1230
0000
0302
0000
2013
0000
3020
,
0000
0231
0000
0302
0000
1023
0000
2030
0000
3200
0000
0321
0000
0132
0000
1003
,
0010
0202
0000
0313
0000
1100
0000
0001
0000
0110
0000
1000
0000
0101
0000
0001
,
0000
0110
0000
0011
0000
0011
0000
0100
0000
1010
0101
0110
0001
1001
1010
1100
,
0110
2222
0000
3333
0000
2222
3333
2222
0000
0000
0000
0000
0000
0000
0000
0000
,
0000
0000
0000
0000
0000
0000
0000
3333
0000
0000
0000
0000
0000
0000
0000
0000
;

//---------------dance-single - ----------------
#NOTES:
     dance-single:
     :
     Easy:
     1:
     0.000,0.000,0.000,0.000,0.000,0.000,0.000,0.000,0.000,0.000:
0000
0000
0000
0000
;

//---------------dance-single - Copied from----------------
#NOTES:
     dance-single:
     Copied from:
     Medium:
     1:
     0.000,0.000,0.000,0.000,0.000,0.000,0.000,0.000,0.000,0.000:
0000
0000
0000
0000
;
